#TITLE:Cutie Chaser;
#SUBTITLE:(2003 Firt Year's Light);
#ARTIST:DJ Potatoe;
#TITLETRANSLIT:;
#SUBTITLETRANSLIT:;
#ARTISTTRANSLIT:;
#CREDIT:;
#BANNER:Cutie-banner.png;
#BACKGROUND:Cutie-bg.png;
#LYRICSPATH:;
#CDTITLE:;
#MUSIC:cutie.mp3;
#MUSICLENGTH:88.737;
#OFFSET:-0.140;
#SAMPLESTART:63.525;
#SAMPLELENGTH:12.000;
#SELECTABLE:YES;
#BPMS:0.000=135.900;
#STOPS:;
#BGCHANGES:;
#FIRSTBEAT:12.000;

#LASTBEAT:200.000;

#SONGFILENAME:Songs/ERICth MIX 2nd Style/cutie chaser/cutie chaser.sm;

#HASMUSIC:1;

#HASBANNER:1;


//---------------dance-single - MANIAC----------------
#NOTES:
     dance-single:
     MANIAC:
     hard:
     8:
     0.449,0.479,0.248,0.135,0.000,245.000,22.000,12.000,0.000,0.000:

0000
0000
0000
0000
,
0000
0000
0000
0000
,
0000
0000
0000
0000
,
0001
1000
0001
1000
,
0001
0000
1000
0010
,
1000
0001
0000
0000
,
0100
0000
0100
0010
0001
0010
0100
0000
,
1100
0000
0101
0000
0100
1000
0100
0001
,
0100
0010
0100
0000
2002
0000
3003
0000
,
0100
1000
0001
0100
0001
1000
0100
0000
,
0010
0100
0010
0000
1000
0001
0100
1000
,
0100
0001
1000
0000
0110
0000
0000
0000
,
1000
0000
1000
0001
0000
0002
0003
0000
,
0010
0000
0010
0100
0000
0100
0010
0000
,
1000
0010
1000
0010
1000
0001
1000
0000
,
1000
0001
0100
0020
0000
0000
0030
0000
,
1000
0000
0100
0010
0000
0001
0000
0000
,
1000
0000
0010
0100
0000
0001
0001
0000
,
0010
1000
0100
1000
0100
0000
0000
0000
,
1000
0001
0010
0001
0010
0001
0010
0000
,
1001
0000
1000
0100
0010
0010
0110
0000
,
2000
0000
3020
0000
0130
0100
0001
0001
,
1000
1000
0100
0000
0110
0000
0000
0000
,
1100
0000
1100
0100
0010
0001
0010
0000
,
0200
0000
2300
0000
3010
0010
0001
0001
,
1000
1000
0100
0000
0010
0000
0000
0000
,
1010
0000
0000
0110
0000
0101
0000
0000
,
1000
0011
0000
1000
0011
0000
0000
0000
,
1000
0100
0000
0100
0000
0100
0010
0001
,
0100
1000
0100
0010
0000
0010
0000
0010
,
0001
1000
0100
2000
0000
3000
0000
0000
,
0001
0010
0100
2000
0000
3000
0000
0000
,
1000
0010
0100
0010
0000
0010
0000
0010
,
0010
0001
1000
0100
0000
0100
0000
0100
,
0010
0100
0001
0100
1000
0000
1000
0010
,
0001
0010
0000
0010
0000
0010
0100
0000
,
1010
0000
0100
0001
0100
0001
0100
0000
,
1100
0000
0011
0000
0100
0010
0100
0010
,
0001
0010
0100
0100
0020
0000
0030
0000
,
1000
0100
0010
0100
1000
0010
0001
0000
,
0011
0000
1010
0000
0100
0010
0001
0010
,
0100
0010
0001
0000
0010
0000
0000
0000
,
1001
0001
0001
0000
1000
1000
1000
0000
,
0010
0010
0100
0100
0001
0001
0001
0000
,
1000
1000
1000
0000
0100
0100
0010
0010
,
0110
0000
0000
1001
0000
0000
0000
0000
,
1000
0010
1000
0010
1000
0010
0010
0010
,
0000
0010
0000
0000
1000
0001
1000
0000
,
0100
0010
0001
0010
0100
0000
0100
0000
,
1000
0100
0000
0100
2000
0000
0000
0000
,
3000
0000
0000
0000;

//---------------dance-single - ANOTHER----------------
#NOTES:
     dance-single:
     ANOTHER:
     medium:
     4:
     0.324,0.365,0.000,0.023,0.000,199.000,0.000,2.000,0.000,0.000:

0000
0000
0000
0000
,
0000
0000
0000
0000
,
0000
0000
0000
0000
,
1000
0000
0001
1000
0100
1000
0010
0000
,
1000
0000
0100
0000
1000
0001
1000
0100
,
0001
0100
0001
0000
0010
0000
0000
0000
,
0100
0000
0000
1000
0000
0010
0000
0000
,
0100
1000
0000
0000
0100
0000
0000
1000
,
0000
1000
0000
0000
0010
1000
0000
0000
,
0001
0000
0000
0100
0000
0001
0000
0000
,
0001
1000
0000
0000
0100
0000
0000
0010
,
0000
0001
0000
0000
1000
0100
0000
0000
,
0001
1000
0100
0010
,
0100
0010
0001
1000
,
0100
1000
0010
1000
,
0001
1000
0010
0100
0010
0000
1000
0000
,
0001
1000
0100
0010
,
0100
1000
0001
1000
,
0001
0010
0001
1000
0001
0100
0001
0000
,
0010
0001
1000
0000
,
0100
0000
1000
0010
1000
0001
0010
0000
,
0100
0000
0010
0000
0001
1000
0100
0010
,
0100
0010
0100
0000
1000
0000
0001
0000
,
0001
0000
1000
0010
0100
0001
1000
0000
,
0001
0000
1000
0000
1000
0100
0010
0001
,
0010
0100
0001
0000
0100
0000
0000
0000
,
0001
0000
0000
1000
0000
0010
0000
0000
,
0100
0001
0000
1000
0100
0000
0000
0000
,
0010
1000
0001
0100
,
0010
0001
1000
0000
,
1000
0010
1000
0000
,
0001
0100
0001
0000
,
1000
0001
1000
0000
0001
1000
0001
0000
,
0010
0100
0010
0000
,
0001
1000
0100
0000
,
0020
0000
0000
0000
0000
0000
0000
0030
,
0100
0000
1000
0001
1000
0010
0100
0000
,
0001
0000
1000
0000
0100
1000
0100
1000
,
0100
1000
0100
0000
0001
0000
0010
0000
,
0001
0000
1000
0000
0100
0010
0001
0000
,
0100
0000
1000
0000
0001
0000
0010
0100
,
0010
0001
1000
0000
0010
0000
0100
0000
,
0001
0000
0000
1000
0000
0000
0000
0000
,
0010
1000
0001
0000
1000
0000
0000
0100
,
0000
0100
0000
0000
0010
0000
0000
0000
,
0100
0000
1000
0001
0000
0000
0100
0000
,
1000
0010
1000
0100
,
1000
0001
1000
0001
,
1000
0010
1000
0100
,
1000
0100
0000
0100
0020
0000
0000
0030;

//---------------dance-single - BASIC----------------
#NOTES:
     dance-single:
     BASIC:
     easy:
     2:
     0.174,0.254,0.011,0.090,0.000,99.000,1.000,8.000,0.000,0.000:

0000
0000
0000
0000
,
0000
0000
0000
0000
,
0000
0000
0000
0000
,
0020
0000
0000
0000
,
0000
0000
0000
0000
,
0000
0000
0000
0000
,
1030
0001
1000
0100
,
0010
0001
0000
1000
,
0100
0010
0100
0000
,
0001
1000
0010
0100
,
0001
0000
0001
1000
,
0100
0010
0100
0000
,
1000
0000
0000
0000
,
0001
0000
0000
0000
,
0020
0000
0000
0000
,
0001
0000
0000
0000
,
0031
0000
0100
0000
,
1000
0000
0010
0000
,
0020
0000
1000
0000
,
0000
0000
1000
1000
,
1030
0100
0010
0100
,
0000
0001
1000
0000
,
0100
0000
0100
0000
,
0000
0000
0000
0000
,
0000
0000
1001
0100
,
1000
0001
0100
0000
,
0010
0000
0000
0000
,
0000
0000
0000
0000
,
0001
1000
0010
0000
,
0000
0000
0010
0000
,
0010
1000
0001
0000
,
0010
0000
0000
0000
,
0100
1000
0001
0000
,
0100
0000
0000
0000
,
0100
0001
1000
0000
,
0100
0000
0000
0000
,
0020
0000
0000
0030
,
0200
0000
0000
0300
,
0002
0000
0000
0003
,
2000
0000
0000
0000
,
3010
0010
0010
0010
,
0010
0010
0010
0010
,
0100
0001
1000
0000
,
0100
0001
1000
0000
,
0100
0001
1000
0000
,
0100
0001
1000
0000
,
0100
0001
1000
0000
,
0100
0001
1000
0000
,
0100
0001
1000
0000
,
0100
0001
2000
0000
,
3000
0000
0000
0000;
